#TITLE:Love Like This;
#SUBTITLE:For You;
#ARTIST:SS501;
#TITLETRANSLIT:Love Like This;
#SUBTITLETRANSLIT:For You;
#ARTISTTRANSLIT:SS501;
#CREDIT:Thu Nam , 19-11-2009;
#BANNER:Love Like This (For You)-bn.png;
#BACKGROUND:Love Like This (For You)-bg.png;
#LYRICSPATH:;
#CDTITLE:pm4cd.png;
#MUSIC:Love Like This (For You).mp3;
#OFFSET:1.001;
#SAMPLESTART:86.680;
#SAMPLELENGTH:20.000;
#SELECTABLE:YES;
#DISPLAYBPM:156.000;
#BPMS:0.000=156.000,4.000=78.000,52.000=156.000,116.000=78.000,148.000=156.000,212.000=78.000,230.000=156.000;
#STOPS:;
#BGCHANGES:;
// cache tags:
#FIRSTBEAT:4.000;
#LASTBEAT:330.000;
#SONGFILENAME:Songs/Music V.I.P ^_^/Love Like This (For You)/Love Like This (For You).sm;
#HASMUSIC:1;
#HASBANNER:1;
#MUSICLENGTH:166.784;
// end cache tags

//---------------dance-single - ----------------
#NOTES:
     dance-single:
     :
     Hard:
     15:
     1.000,1.000,1.000,0.282,1.000,1014.000,329.000,47.000,0.000,28.000:
0000
0000
0000
0000
,
0100
1000
0100
0010
0001
0010
0100
1000
0101
0010
0100
1000
0100
0010
0001
0010
,
0101
0100
1000
0100
0010
0001
0010
0100
1010
0001
0010
0100
1010
0001
0010
0001
,
1100
0010
0001
0010
0100
1000
0100
0010
1001
0010
0100
1000
0100
0010
0001
0110
,
0110
0000
0001
0000
0010
0000
0001
0000
0010
0000
0100
0000
1000
0000
0100
0000
0012
0000
2003
0100
3012
0000
0023
0000
1230
0000
0320
0000
1230
0000
0320
0000
,
1031
0000
0100
1000
0011
0100
0001
0100
1010
0001
1000
0100
0011
0100
1000
1000
,
0110
0000
0100
0010
1001
0100
0010
0001
1010
0001
0100
1000
0110
0001
1000
0010
,
0101
0000
0001
0010
2100
0000
3100
0010
0101
1000
0001
0100
1010
0001
0100
0010
,
1100
0000
0000
0000
0010
0000
0001
0000
1010
0000
0001
0000
0010
0000
0001
0000
1100
0000
0100
0010
1001
0000
0010
0000
0101
0000
0010
0000
1001
0000
0010
0000
,
0201
0001
0010
1000
0321
0100
1000
0100
2031
0100
0010
0001
3210
0001
0010
1000
,
0312
0100
1000
0100
2013
0100
0010
0001
3120
0001
0100
1000
0231
0010
0001
1000
,
0312
0000
0100
0010
1100
0010
0000
0100
1013
0001
0100
1000
0101
0010
0100
0010
,
1001
0000
0000
0000
0010
0000
0000
0000
0100
0000
0000
0000
0001
0000
0000
0000
1100
0000
0000
0000
0010
0000
0000
0000
0100
0000
0000
0000
1000
0000
0000
0000
0010
0000
0000
0000
0100
0000
0000
0000
0010
0000
0000
0000
0100
0000
0000
0000
0010
0000
0100
0000
0010
0000
0100
0000
0010
0100
0010
0100
0010
0100
0010
0100
,
0010
0100
1001
1010
1100
0001
1010
0010
,
1100
0100
0101
0100
1100
0100
1010
0001
,
1100
0100
0101
0110
1001
0010
1100
0100
,
1001
0010
0101
0010
1001
0010
0101
0100
,
0110
0010
0101
1001
1100
0001
0011
0100
,
1100
0100
1010
0100
1100
0100
0101
0010
,
1100
0100
1010
0011
1001
0010
1100
0001
,
0110
0000
1010
0001
1100
0000
1010
0000
0101
0000
0110
0001
1100
0000
0110
0000
,
1001
0100
0010
0001
1010
0100
0011
1000
0101
0010
0100
1000
0110
0001
0100
0010
,
1100
0010
0001
1000
0110
1000
0001
0010
1100
0010
0001
1000
0110
1000
0001
0100
,
0011
1000
0100
0001
0110
1000
0011
0100
1001
0100
0010
0001
1010
0100
0001
0010
,
0101
0010
0100
0010
1001
0010
0001
0010
0101
0010
0100
0010
1001
0010
0100
0010
,
1100
0001
0100
0010
1001
0010
1001
0010
0101
0010
0001
0100
0011
1000
0100
0010
,
1100
0001
0010
0001
0110
1000
0010
0001
1100
0001
0010
0001
0110
0001
0010
1000
,
0011
1000
0010
0100
1001
0010
0101
1000
0011
1000
0010
0001
0110
1000
0100
0010
,
1001
0000
1010
0001
1100
0000
0110
0000
1001
0000
0101
1000
0011
0000
0110
0000
,
1001
0000
0010
0000
0100
0000
0010
0000
1100
0000
0010
0000
1001
0000
0010
1000
,
0101
0000
0010
0100
0011
0100
1000
0100
1010
0100
0010
1000
0101
0010
0100
0000
,
1100
0000
0001
0010
0101
0010
0100
0001
1010
0100
0010
1000
0110
1000
0100
0010
,
1001
0000
0100
0000
0010
0000
0100
0000
1010
0000
0100
0000
0010
0000
0001
0000
1100
0000
0010
0001
1100
0000
0010
0000
1100
0000
0010
0000
0101
0000
0010
0000
,
2001
0010
0100
0010
3201
0010
0001
2000
3321
0100
0001
0100
1032
0100
0010
0200
,
1323
0001
0100
0001
1230
0010
0001
0010
2310
0001
0100
0010
3201
0010
0001
1000
,
0321
0100
1000
0100
1032
0100
0010
1000
0123
0001
1000
0001
1230
0001
1000
0010
,
2301
0000
0000
0000
0010
0000
0000
0000
0100
0000
0000
0000
0010
0000
0000
0000
3201
0000
0000
0000
0001
0000
0000
0000
1000
0000
0000
0000
0010
0000
0000
0000
1300
0000
0000
0000
0001
0000
0000
0000
1000
0000
0000
0000
0001
0000
0000
0000
1000
0000
0001
0000
1000
0000
0001
0000
1000
0001
1000
0001
1000
0001
1000
0001
,
1000
0010
1100
0110
1001
0010
0101
0001
,
1010
0010
1100
0010
1010
0010
1100
0010
,
1010
0010
0011
1001
0110
0010
1001
0100
,
0101
0100
0110
0100
0101
0100
0110
0100
,
1001
0010
1100
0110
0011
1000
0101
0010
,
1001
0010
1100
0010
1001
0010
1100
0010
,
1010
0100
0011
0101
1001
0010
1100
0001
,
0110
0000
0010
0100
1001
0000
0010
0000
1100
0000
0010
0100
1001
0000
0010
0000
,
1100
1000
0100
0010
1001
0100
0011
0100
1010
0001
0010
0100
1010
0001
0100
0010
,
1100
0010
0100
0010
1001
0010
0001
0010
1100
0010
0100
0010
1001
0100
0010
0100
,
1010
0001
1000
0100
1001
0010
0101
1000
0110
0001
0010
1000
0101
0010
0100
1000
,
0011
0100
0001
1000
0110
1000
0001
0100
0011
0100
0001
1000
0110
1000
0001
0100
,
1001
0100
0001
1000
0101
0010
1100
0001
1010
0100
0001
0010
1100
0001
1000
0010
,
1001
0010
1000
0010
0101
0010
0100
0010
1001
0010
1000
0010
0101
0010
0100
0010
,
1100
0001
0010
0001
1100
0001
1010
0100
1001
0100
0010
0100
1010
0001
0100
0010
,
1100
0000
1010
0100
1001
0000
1010
0000
1100
0000
0110
0010
1001
0000
0101
0000
,
0011
0100
1000
0010
0101
0010
0001
0100
1010
0100
1000
0010
0101
0010
0001
0100
,
1010
0100
1000
0010
0101
0010
0001
0100
1010
0100
1000
0010
0101
0010
0001
0100
,
1010
0100
1000
0010
0101
0010
0001
0100
1010
0100
1000
0010
0101
0010
0001
0100
,
1010
0100
1000
0010
0101
0010
0001
0100
1020
0000
0000
0000
0000
0200
0030
0000
,
1310
0000
0110
0001
1010
0000
0110
0000
1100
0000
0110
1000
0011
0000
0110
0000
1001
0000
0000
0000
0010
0000
0000
0000
1100
0000
0000
0000
0110
0000
0000
0000
,
0011
1000
0101
0010
1100
0010
0101
0010
,
1100
0010
0101
0010
1001
0010
0110
1001
,
1010
0001
0110
1000
1100
0100
1010
0100
,
1100
0100
1010
0100
0011
1000
0110
0011
,
1100
0010
0101
0100
1001
0010
0110
0010
,
1001
0010
0110
0010
1010
0001
1010
0110
,
0101
0000
0010
0000
1100
0000
0001
0000
0110
0000
1000
0010
0101
0000
1000
0000
,
0110
0000
1000
0010
0101
0000
0001
0000
0110
1000
0010
0100
1010
0100
1010
0001
,
1100
0001
0100
0010
0011
1000
0010
0100
1010
0100
1000
0100
1001
0100
0010
0100
,
1010
0100
1000
0100
1001
0100
0010
0100
0011
1000
0010
0100
1001
0010
0101
1000
,
0011
0100
0010
1000
0101
0010
1000
0100
0011
0100
1000
0010
0101
0010
1000
0100
,
0011
0100
1000
0010
0101
0010
0100
1000
1001
0100
0010
0100
1010
0001
0110
1000
,
0101
0010
0001
0100
0110
0001
0010
0100
1001
0100
0010
0001
0110
0001
0010
0100
,
1001
0100
0010
0001
0110
0001
0010
0100
1010
0100
0001
0100
1001
0100
1010
0100
,
0011
1000
0100
0001
1010
0001
0100
0010
1100
0000
0110
0001
1100
0000
0110
0000
,
0011
0000
1010
0100
0011
0000
1010
0000
2001
0000
0000
0000
0100
0000
0010
0000
,
0001
0010
0001
0010
3200
0000
0001
0010
,
1000
0001
0010
0001
0320
0000
1000
0100
,
0001
0100
1000
0100
0032
0000
0023
0000
,
0230
0000
2300
0000
3200
0000
0010
0001
,
0010
1000
0010
0001
0320
0000
1000
0100
,
0001
0100
1000
0100
0032
0000
1000
0100
,
0010
0100
1000
0100
0023
1000
0100
0001
,
0100
1000
0130
0001
0000
0001
0100
0000
,
0010
1000
0000
0010
0100
0000
0000
0000
;
